X265 Qcomp

9 GiB Duration : 2h 28mn Overall bit rate mode : Varia. Some higher architectures imply lower ones being. mkv Format : Matroska Format version : Version 4 File size : 2. stats” –profile main –level-idc 4. While x265 does the outlines and the steam part quite like in the original frame, x264 rips the outlines apart a bit too much, and slight block artifacts can again be seen for the steam part. Video ID : 1 Format : HEVC Format/Info : High Efficiency Video Coding Format profile : Main [email protected]@Main Codec ID : hev1 Codec ID/Info : High Efficiency Video Coding Duration : 1 h 46 min Bit rate : 2 000 kb/s Width : 1 916 pixels Height : 800 pixels Display aspect ratio : 2. It reminded me of the time I’ve been using ISDN at 64kbit/s (my provider didn’t let me use CAPI channel aggregation for 128kbit/s), which was the first true flat rate in my country. Activates rate-distortion optimization for partition decision. X265 Qcomp X265 Qcomp. 5 release_3. Recommendation: Default See Also:--cplxblur, --qblur cplxblur. 8 too as I find that higher CRF values (22-25) combined with higher qcomp gives better results than lower CRF (say 19-22) and qcomp 0. The correct syntax to enable lossless mode for x265 encoder in ffmpeg is -x265-params lossless=1 (you need to append =1). Similarly, there are also confusion with x265 and H. [Anime Time] Domestic Na Kanojo - 09 [1080p 10bit HEVC x265]. exe –pass 1 –bitrate 5616 –stats “. See full list on en. Cosmetics: x265, finer control over qcomp Input: disabling crop when loading a new single source and autocrop isn't enabled Input: disabling 'convert output par to' when loading a new single source. That's why sought your inputs on same. Direct download via magnet link. Bottom (1991) Season 1-3 S01-S03 + Specials (576p DVD x265 HEVC 10bit AAC 2. mkv torrent or any other torrent from the Video HD - Movies. The correct syntax to enable lossless mode for x265 encoder in ffmpeg is -x265-params lossless=1 (you need to append =1). For those that don't believe x265 > x264. Hi people, I was just wondering if anyone knows how to encode files in x265 but make the BD size much smaller while maintaining most of the quality like PSA encoders do. See the developer wiki for instructions for downloading and building the source. While crf and 2-pass affect the overall quality of the encode, qcomp affects how crf and 2-pass are applied. April 17, 2020 1080p, Movies 99 Views. mkv Format : Matroska Format version : Version 4 File size : 2. crf in x265 is somewhat a pain to tune and confusing to beginners due to tons of settings being intertwined controlling bitrate and quantization. General Complete name : F:\Torrents\Gundam 00 Complete (Eng Dub) - [720p HEVC x265] - BVz\Movie\Gundam 00 Awakening of the Trailblazer - [720p x265] - BVz. if I have to disable lets say rdoq-level how should use :no-rdoq-level=1 to activate the command to deactivate rdoq level or i have to use :rdoq-level=0 ? the rdoq level range il between 0 and 2 so :rdoq-level=0 mean "deactivate rdoq-level or set rdoq level. From the definition, we got to know x265 is a successor to x264. qcompを下げた結果むしろ大人しい場面の線が綺麗になることも普通にあるよ 現状の下限の0. After doing a [somewhat proper comparison between x264 and x265] a while back, I thought I’d do another one at extremely low bitrates. 000000, bitrate: 265156 kb/s Stream #0:0: Video: rawvideo (I420 / 0x30323449), yuv420p, 1280x720, SAR 1:1 DAR 16:9, 23. ) Introduction. X265 qcomp - ac. nr: nr: Noise reduction. avs | x265-8b. --fades can detect and handle fade-in regions. There are three output files specified, and for the first two, no -map options are set, so ffmpeg will select streams for these two files automatically. Next to crf/2-pass it is the most important x264 parameter for afecting the quality of your final encode. ) Introduction. The range is from 0-16. I looked at the header file for x264 and compared it with x265, and it looks like one would be able to port the x264 plugin to support the x265 library with a moderate amount of effort. hi, my brightness level is 100%. Versions default latest stable 3. qcomp: qcomp: Quantizer curve compression factor: refs: ref: Number of reference frames each P-frame can use. What I'm concerned is the input source. 02 GiB Duration : 43 min 3 s Overall bit rate : 6 704 kb/s Encoded date : UTC 2020-09-04 10:01:55. x265 [info]: HEVC encoder version 2. x265 won hands down. 2, AVX, XOP, FMA4, AVX2, FMA3. If you don't want to buy a new drive and are concerned about the power usage then use x264. Direct download via magnet link. 6 with most. VOB files through h. 265 codec for video streams-x265-params passes options to x265 encoder instead of ffmpeg. qcomp will always be a number between 0. 1 LION) Peaky Blinders (2013) Season 1-5 (1080p BluRay x265 HEVC 10bit AAC 5. Download Dexter (2006) Season 1-8 S01-S08 (1080p BluRay x265 HEVC 10bit AAC 5. if I have to disable lets say rdoq-level how should use :no-rdoq-level=1 to activate the command to deactivate rdoq level or i have to use :rdoq-level=0 ? the rdoq level range il between 0 and 2 so :rdoq-level=0 mean "deactivate rdoq-level or set rdoq level. profumerienonstop. Fuel Caps suitable for Bedfords (and other models) Various sizes and prices. Next to crf/2-pass it is the most important x264 parameter for afecting the quality of your final encode. Anime - Dub | 41. Plot: A dangerously charming, intensely obsessive young man goes to extreme measures to insert himself into the lives of those he is transfixed by. 1+59 seemed to be a great improvement over previous builds in my encodes, but in +59 and +69, the encoding settings show stats-file= location. For those that don't believe x265 > x264. Versions default latest stable 3. Complete name : Mutant X (2001) S03E01 Into the Moonless Night (1080p BDRip x265 10bit PCM 2. qcomp will always be a number between 0. I looked at the header file for x264 and compared it with x265, and it looks like one would be able to port the x264 plugin to support the x265 library with a moderate amount of effort. x264 is an earlier codec and is used in a lot of videos nowdays and x265 is a newer standard. What I understood from the ffmpeg documentation was that:-c:v libx265 tells ffmpeg to use the h. Off the top of my head, the following changes are required: x264_param_t -> x265_param; x264_t -> x265_encoder; x264_picture_t -> x265_picture; x264_nal_t. 265) video compression format that was developed and standardized by the ISO/IEC MPEG and ITU-T VCEG. In a world where superheroes embrace the darker side of their massive celebrity and fame, The Boys centres on a group of vigilantes known informally as. If you don't want to buy a new drive and are concerned about the power usage then use x264. While crf and 2-pass affect the overall quality of the encode, qcomp affects how crf and 2-pass are applied. 1 Vyndros) only on ettvdl. currently using Handbrake, one thing I learned was that if you turn sharpness to normal, you get a better quality output. However, for lossless coding there are better codec choices. However, in daily life, it's not that exact for x264 vs x265 and H. Only one thing is still bothering me, and it only started recently. See also: qcomp, cplxblur, qblur. See the developer wiki for instructions for downloading and building the source. That is to say, we usually lumped together H. 1 Vyndros) ETTV torrent download - Free Download of Timeless (2016) Complete Series (1080p BluRay x265 HEVC 10bit DD 5. 265) video compression format that was developed and standardized by the ISO/IEC MPEG and ITU-T VCEG. X265 qcomp - ac. Direct download via magnet link. Default value is 0. mkv using ffmpeg decoder) also resembles with output of x265_2. 7 GB | Uploaded by iAHD on 2020-07-15 22:08:39 UTC | #342278. 8x8dct=1 aq-mode=2 bframes=1 chroma-qp-offset=2 colormatrix=smpte170m deblock=0:0 direct=auto ipratio=1. x265 is an open source HEVC encoder. Download Crazyhead S01 1080p WEB AAC2 0 x265-LUMI - ETTV torrents. A hot-headed, foul-mouthed high school basketball coach is sure he'll hit the big leagues if he can only turn his terrible team around. sc_threshold: scenecut: Sets the threshold for the scene change detection. Default: 20. x265 will use all detected CPU SIMD architectures by default. 9 GiB Duration : 2h 28mn Overall bit rate mode : Varia. When used with mbtree, it affects the strength of mbtree. AAC-HazMatt. 1 LION) Peaky Blinders (2013) Season 1-5 (1080p BluRay x265 HEVC 10bit AAC 5. Various models, competitive prices. 1 me=hex merange=16 min-keyint=auto mixed-refs=1 no-mbtree=0 partitions=i4x4,p8x8,b8x8 profile=main psy-rd=0. It reminded me of the time I've been using ISDN at 64kbit/s (my provider didn't let me use CAPI channel aggregation for 128kbit/s), which was the first true flat rate in my country. Mailing List [email protected] Download Crazyhead S01 1080p WEB AAC2 0 x265-LUMI - ETTV torrents. 2 GB | Uploaded by iAHD on 2020-04-23 22:13:29 UTC | #327541. VOB files through h. Read the Docs v: default. Complete name : Star Trek - Insurrection 1998 (1080p x265 10bit Tigole). x265 is better than x264 in terms of space and quality. If you don't want to buy a new drive and are concerned about the power usage then use x264. Off the top of my head, the following changes are required: x264_param_t -> x265_param; x264_t -> x265_encoder; x264_picture_t -> x265_picture; x264_nal_t. x265 will use all detected CPU SIMD architectures by default. Default value is 0. That's why sought your inputs on same. Default: 20. ) Introduction. y4m': Duration: 00:00:03. I am trying to use ffmpeg's built-in x265 library to process. It reminded me of the time I've been using ISDN at 64kbit/s (my provider didn't let me use CAPI channel aggregation for 128kbit/s), which was the first true flat rate in my country. It’s value must be between 0. Recommendation: Default See Also:--cplxblur, --qblur cplxblur. currently using Handbrake, one thing I learned was that if you turn sharpness to normal, you get a better quality output. rceq, cplxblur, qblur. 265) video compression format that was developed and standardized by the ISO/IEC MPEG and ITU-T VCEG. 8x8dct=1 aq-mode=2 bframes=1 chroma-qp-offset=2 colormatrix=smpte170m deblock=0:0 direct=auto ipratio=1. Quantizer curve compression factor. mkv torrent or any other torrent from the Video HD - Movies. Performance Options¶--asm , --no-asm¶. I found by testing that FFV1 compresses vastly better (file size = ~80% of x265) at least on some kinds of video (if best settings are chosen for both codecs). Plot: A dangerously charming, intensely obsessive young man goes to extreme measures to insert himself into the lives of those he is transfixed by. x265 is a library for encoding video into High Efficiency Video Coding (HEVC/H. See the developer wiki for instructions for downloading and building the source. profumerienonstop. 1+59 seemed to be a great improvement over previous builds in my encodes, but in +59 and +69, the encoding settings show stats-file= location. Default: 20. avs | x265-8b. Thing is, I didn't understand all of the knobs x265 has to offer, and some of the convenient presets of x264 didn't exist here (like --tune. 3+57-44b95661db56df0a:[Windows][GCC 4. See x265 --help for a list of options. VOB files through h. avs | x265-8b. (Higher qcomp = weaker mbtree). April 17, 2020 1080p, Movies 99 Views. 265 codec for video streams-x265-params passes options to x265 encoder instead of ffmpeg. x265 is better than x264 in terms of space and quality. x265 [info]: HEVC encoder version 2. I found by testing that FFV1 compresses vastly better (file size = ~80% of x265) at least on some kinds of video (if best settings are chosen for both codecs). 1+59 seemed to be a great improvement over previous builds in my encodes, but in +59 and +69, the encoding settings show stats-file= location. mkv is a Matroska container file and accepts video, audio and subtitle streams, so ffmpeg will try to select one of each type. I looked at the header file for x264 and compared it with x265, and it looks like one would be able to port the x264 plugin to support the x265 library with a moderate amount of effort. mkv Format : Matroska Format version : Version 4 File size : 2. 2, AVX, XOP, FMA4, AVX2, FMA3. 0 Ghost) [QxR]. hi, my brightness level is 100%. X265 Qcomp X265 Qcomp. Lots of models available. Apply a gaussian blur with the given radius to the quantizer curve. ) Introduction. Set x265 options using a list of key=value couples separated by ":". 0 will effectively generate CQP. 6) is a good option for dither compression issues, which is what causes the banding. Gifts and t-shirts. Torrent details for "The Way of the Dragon (1972) + Extras (Criterion) (1080p BluRay x265 HEVC 10bit EAC3 1. In a world where superheroes embrace the darker side of their massive celebrity and fame, The Boys centres on a group of vigilantes known informally as. x265 will use all detected CPU SIMD architectures by default. There are three output files specified, and for the first two, no -map options are set, so ffmpeg will select streams for these two files automatically. -qcomp: float 0 - 1, 0 = CBR, 1 = VBR, (default 0. 1 English+German Joy) Rogue (2020) (1080p BluRay x265 HEVC 10bit AAC 5. x265 is a library for encoding video into the High Efficiency Video Coding (HEVC/H. 265 and x264 vs x265 comparison. Activates rate-distortion optimization for partition decision. 40:1 Frame rate mode : Constant Frame rate : 23. 0 Ghost) [QxR] ETTV torrent download - Free Download of Bottom (1991) Season 1-3 S01-S03 + Specials (576p DVD x265 HEVC 10bit AAC 2. 9 GiB Duration : 2h 28mn Overall bit rate mode : Varia. x265 is better than x264 in terms of space and quality. Bottom (1991) Season 1-3 S01-S03 + Specials (576p DVD x265 HEVC 10bit AAC 2. MorpheusRoger. 1 –high-tier –merange 64 –deblock=-3:-3 –ref 5 –max-merge 3 –rect –me 3 –bframes 8 –rdoq-level 2 –b-adapt 2 –rd 6 –qcomp 1. After doing a [somewhat proper comparison between x264 and x265] a while back, I thought I'd do another one at extremely low bitrates. This can considerably improve efficiency, though it has a notable speed cost. x265 can now accept interlaced inputs directly (no need to separate fields), and sends it to the encoder with proper fps and frame-size through --field. 6 activates it in I/P frames, and subme7 activates it in B frames. The Constant Rate Factor (CRF) is the default quality (and rate control) setting for the x264 and x265 encoders, and it’s also available for libvpx. The correct syntax to enable lossless mode for x265 encoder in ffmpeg is -x265-params lossless=1 (you need to append =1). qcomp will always be a number between 0. Netflix did a test using 20 million frames across just about every genre of video they have. Off the top of my head, the following changes are required: x264_param_t -> x265_param; x264_t -> x265_encoder; x264_picture_t -> x265_picture; x264_nal_t. After doing a [somewhat proper comparison between x264 and x265] a while back, I thought I’d do another one at extremely low bitrates. X265 qcomp. Download Crazyhead S01 1080p WEB AAC2 0 x265-LUMI - ETTV torrents. Please Note: This guide will remain here for historic purposes but FFmpeg and libav now use libx264's internal -preset, -profile and -tune options. See discussion on doom9, linked by Michael in a comment. In terms of crf encoding mode, high qcomp leads to more aggressive QP reduction (bitrate boosting) for complex scene. Download Psych Season 1-8 720p x265 HEVC-UTR torrent or any other torrent from the Video HD - TV shows. 0][64 bit] 10bit x265 [info]: using cpu capabilities: MMX2 SSE2Fast SSSE3 SSE4. Bedford replacement Parts. Anime - Dub | 41. But whenever try to run the command, ffmpeg doesn't seem to recognize/pass the options to x265. currently using Handbrake, one thing I learned was that if you turn sharpness to normal, you get a better quality output. Timeless (2016) Complete Series (1080p BluRay x265 HEVC 10bit DD 5. x265-ROCCaT. x265 and x264 are two different video compression standards that are used to compress video in size but still maintain the quality of the video. 265 codec for video streams-x265-params passes options to x265 encoder instead of ffmpeg. Hi people, I was just wondering if anyone knows how to encode files in x265 but make the BD size much smaller while maintaining most of the quality like PSA encoders do. Activates rate-distortion optimization for partition decision. Various models, competitive prices. currently using Handbrake, one thing I learned was that if you turn sharpness to normal, you get a better quality output. x265 is a library for encoding video into the High Efficiency Video Coding (HEVC/H. That is to say, we usually lumped together H. x265-ROCCaT. See discussion on doom9, linked by Michael in a comment. 10 or 12-bit might even look a tiny bit worse. if I have to disable lets say rdoq-level how should use :no-rdoq-level=1 to activate the command to deactivate rdoq level or i have to use :rdoq-level=0 ? the rdoq level range il between 0 and 2 so :rdoq-level=0 mean "deactivate rdoq-level or set rdoq level. qcompを下げた結果むしろ大人しい場面の線が綺麗になることも普通にあるよ 現状の下限の0. x265 is offered under either version 2 of the GNU General Public License (GPL) or a commercial license, similar to the x264 project. hi, my brightness level is 100%. ) Introduction. Only one thing is still bothering me, and it only started recently. However, if you are encoding a source where it is mainly either simple scene or complicated motion, you can try increasing qcomp. Note that adaptive quantization partially replaces the effect of qcomp and x264 will internally raise qcomp to compensate based on the adaptive quantization strength. 40:1 Frame rate mode : Constant Frame rate : 23. 1 ImE) [QxR] Torrent - RARBG. Page 207- x265 HEVC Encoder High Efficiency Video Coding (HEVC) Welcome to Doom9's Forum, THE in-place to be Impressive results based on the comparisons. 3 release_3. x265 is better than x264 in terms of space and quality. x265-params. Download Psych Season 1-8 720p x265 HEVC-UTR torrent or any other torrent from the Video HD - TV shows. x265 [info]: tools: fast-intra strong-intra-smoothing deblock(tC=-1:B=-1) sao ACTUALLY. It weights the frame quantizer based on the complexity of residual (measured by lookahead). 40:1 Frame rate mode : Constant Frame rate : 23. mkv torrent or any other torrent from the Video HD - Movies. Hi people, I was just wondering if anyone knows how to encode files in x265 but make the BD size much smaller while maintaining most of the quality like PSA encoders do. This guide maps most of x264's options to FFmpeg's options along with detailed descriptions by x264 developer Dark_Shikari. -qcomp: float 0 - 1, 0 = CBR, 1 = VBR, (default 0. DARK Season 1-3 (1080p + 2160p NF WEB-DL x265 HEVC 10bit AAC 5. That is to say, we usually lumped together H. For those that don't believe x265 > x264. Activates rate-distortion optimization for partition decision. I looked at the header file for x264 and compared it with x265, and it looks like one would be able to port the x264 plugin to support the x265 library with a moderate amount of effort. That's why sought your inputs on same. The correct syntax to enable lossless mode for x265 encoder in ffmpeg is -x265-params lossless=1 (you need to append =1). Fuel Caps suitable for Bedfords (and other models) Various sizes and prices. 100 Input #0, yuv4mpegpipe, from 'test. 6 qpmax=51 qpmin=10 qpstep=4 ratetol=10 rc-lookahead=30 ref=1 scenecut=40 subme=7 threads=0. My perceptions are poor :). currently using Handbrake, one thing I learned was that if you turn sharpness to normal, you get a better quality output. It reminded me of the time I’ve been using ISDN at 64kbit/s (my provider didn’t let me use CAPI channel aggregation for 128kbit/s), which was the first true flat rate in my country. Is there anything else I can do, tried de-noise but didn't see much difference. Apply a gaussian blur with the given radius to the quantizer curve. But whenever try to run the command, ffmpeg doesn't seem to recognize/pass the options to x265. Read the Docs v: default. 5 release_3. Various models, competitive prices. [Anime Time] Domestic Na Kanojo - 09 [1080p 10bit HEVC x265]. Versions default latest stable 3. Direct download via magnet link. 3k posts, ranked #271. Gifts and t-shirts. I found by testing that FFV1 compresses vastly better (file size = ~80% of x265) at least on some kinds of video (if best settings are chosen for both codecs). The range is from 0-16. 5)-g: Maximum keyframe interval (frames)-keyint_min: Minimum keyframe interval (frames)-auto-alt-ref: Enable use of alternate reference frames (2-pass only) (0 disabled, 1 enabled )-lag-in-frames: number of frames to look ahead for when encoding, 0 no limit: 0-25-arnr-maxframes. Quantizer curve compression factor i_qfactor b_qfactor forced-idr. Please see `avconv -h | less` or `ffmpeg -h | less` and scroll down to "libx264 AVOptions:". However, for lossless coding there are better codec choices. Bedford replacement Parts. x265 [info]: HEVC encoder version 2. You can disable all assembly by using --no-asm or you can specify a comma separated list of SIMD architectures to use, matching these strings: MMX2, SSE, SSE2, SSE3, SSSE3, SSE4, SSE4. sc_threshold: scenecut: Sets the threshold for the scene change detection. This can considerably improve efficiency, though it has a notable speed cost. It reminded me of the time I've been using ISDN at 64kbit/s (my provider didn't let me use CAPI channel aggregation for 128kbit/s), which was the first true flat rate in my country. April 17, 2020 1080p, Movies 99 Views. 0 will effectively generate CQP. 7 GB | Uploaded by iAHD on 2020-07-15 22:08:39 UTC | #342278. X265 Qcomp X265 Qcomp. There are three output files specified, and for the first two, no -map options are set, so ffmpeg will select streams for these two files automatically. Complete name : Mutant X (2001) S03E01 Into the Moonless Night (1080p BDRip x265 10bit PCM 2. Performance Options¶--asm , --no-asm¶. But whenever try to run the command, ffmpeg doesn't seem to recognize/pass the options to x265. 70, released 2014-09-03 supported x265 library name and x265 encoding settings Example: Writing library : x265 1. x265 is better than x264 in terms of space and quality. In a world where superheroes embrace the darker side of their massive celebrity and fame, The Boys centres on a group of vigilantes known informally as. 1 ImE) [QxR] Torrent - RARBG. RDO relies on there being detail in the image to begin with, not fine detail like dither or film grain but larger more visible grains and patterns. 0 and x265_2. 7 GB | Uploaded by iAHD on 2020-07-15 22:08:39 UTC | #342278. Quantizer curve compression factor. 264, due to early performance and licensing issues, it didn’t get widely adopted, especially as a streaming format. ) Introduction. What I understood from the ffmpeg documentation was that:-c:v libx265 tells ffmpeg to use the h. 1 LION) Peaky Blinders (2013) Season 1-5 (1080p BluRay x265 HEVC 10bit AAC 5. x265 is offered under either version 2 of the GNU General Public License (GPL) or a commercial license, similar to the x264 project. 1 Ghost) [QxR] ETTV torrent download - Free Download of Dead to Me (2019) Season 2 S02 (1080p NF WEBRip x265 HEVC 10bit EAC3 5. 10 or 12-bit might even look a tiny bit worse. Plot: A dangerously charming, intensely obsessive young man goes to extreme measures to insert himself into the lives of those he is transfixed by. However, in daily life, it's not that exact for x264 vs x265 and H. I found by testing that FFV1 compresses vastly better (file size = ~80% of x265) at least on some kinds of video (if best settings are chosen for both codecs). 1 Vyndros) ETTV torrent download - Free Download of Timeless (2016) Complete Series (1080p BluRay x265 HEVC 10bit DD 5. Cosmetics: x265, finer control over qcomp Input: disabling crop when loading a new single source and autocrop isn't enabled Input: disabling 'convert output par to' when loading a new single source. 2 GB | Uploaded by iAHD on 2020-04-23 22:13:29 UTC | #327541. See discussion on doom9, linked by Michael in a comment. April 17, 2020 1080p, Movies 99 Views. What I understood from the ffmpeg documentation was that:-c:v libx265 tells ffmpeg to use the h. If you don't want to buy a new drive and are concerned about the power usage then use x264. 5)-g: Maximum keyframe interval (frames)-keyint_min: Minimum keyframe interval (frames)-auto-alt-ref: Enable use of alternate reference frames (2-pass only) (0 disabled, 1 enabled )-lag-in-frames: number of frames to look ahead for when encoding, 0 no limit: 0-25-arnr-maxframes. I haven't followed the latest discussions, so I'm not sure what the current consensus is on 10-bit x265 for 8-bit video. avs | x265-8b. 0 => Constant Bitrate, 1. X265 qcomp - ac. 1 Vyndros) only on ettvdl. 2, AVX, XOP, FMA4, AVX2, FMA3. x264 is an earlier codec and is used in a lot of videos nowdays and x265 is a newer standard. 6 qpmax=51 qpmin=10 qpstep=4 ratetol=10 rc-lookahead=30 ref=1 scenecut=40 subme=7 threads=0. 0 Ghost) [QxR]. Info from mpc-hc: Video: HEVC 1920x1080 23. mkv [Anime Time] Domestic Na Kanojo - 11 [1080p 10bit HEVC x265]. x265 [info]: tools: fast-intra strong-intra-smoothing deblock(tC=-1:B=-1) sao ACTUALLY. x265 is free to use under the GNU GPL and is also available under a commercial license. y4m': Duration: 00:00:03. x265-params. currently using Handbrake, one thing I learned was that if you turn sharpness to normal, you get a better quality output. It’s value must be between 0. 0 and x265_2. Netflix did a test using 20 million frames across just about every genre of video they have. [3] [4] x265 is offered under either version 2 of the GNU General Public License (GPL) or a commercial license, similar to the x264 project. X265 qcomp - ac. Mailing List [email protected] While x265 does the outlines and the steam part quite like in the original frame, x264 rips the outlines apart a bit too much, and slight block artifacts can again be seen for the steam part. x265 [info]: tools: fast-intra strong-intra-smoothing deblock(tC=-1:B=-1) sao ACTUALLY. There are three output files specified, and for the first two, no -map options are set, so ffmpeg will select streams for these two files automatically. 6 with most. 265 and x264 vs x265 comparison. Anime - Dub | 21. In terms of crf encoding mode, high qcomp leads to more aggressive QP reduction (bitrate boosting) for complex scene. That is to say, we usually lumped together H. See the developer wiki for instructions for downloading and building the source. After doing a [somewhat proper comparison between x264 and x265] a while back, I thought I’d do another one at extremely low bitrates. 3 release_3. VOB files through h. 8x8dct=1 aq-mode=2 bframes=1 chroma-qp-offset=2 colormatrix=smpte170m deblock=0:0 direct=auto ipratio=1. Latest MesiaInfo of version 0. You can disable all assembly by using --no-asm or you can specify a comma separated list of SIMD architectures to use, matching these strings: MMX2, SSE, SSE2, SSE3, SSSE3, SSE4, SSE4. Activates rate-distortion optimization for partition decision. mkv [Anime Time] Domestic Na Kanojo - 10 [1080p 10bit HEVC x265]. 10 or 12-bit might even look a tiny bit worse. Next to crf/2-pass it is the most important x264 parameter for afecting the quality of your final encode. I found by testing that FFV1 compresses vastly better (file size = ~80% of x265) at least on some kinds of video (if best settings are chosen for both codecs). The correct syntax to enable lossless mode for x265 encoder in ffmpeg is -x265-params lossless=1 (you need to append =1). 2 GB | Uploaded by iAHD on 2020-04-23 22:13:29 UTC | #327541. VOB files through h. Normally, when forcing a I-frame type, the encoder can select any type of I-frame. Only one thing is still bothering me, and it only started recently. Netflix did a test using 20 million frames across just about every genre of video they have. 0 Chinese + E" Log in to bookmark. I am trying to use ffmpeg's built-in x265 library to process. 1 LION) Peaky Blinders (2013) Season 1-5 (1080p BluRay x265 HEVC 10bit AAC 5. 1 ImE) [QxR] Torrent - RARBG. Page 207- x265 HEVC Encoder High Efficiency Video Coding (HEVC) Welcome to Doom9's Forum, THE in-place to be Impressive results based on the comparisons. rceq, cplxblur, qblur. Is there anything else I can do, tried de-noise but didn't see much difference. trellis: trellis: Performs Trellis quantization to increase efficiency. 41 keyint=240 level=3. Download The. profumerienonstop. I haven't followed the latest discussions, so I'm not sure what the current consensus is on 10-bit x265 for 8-bit video. 1][64 bit] 8bit. 5 release_3. What I understood from the ffmpeg documentation was that:-c:v libx265 tells ffmpeg to use the h. mkv Format : Matroska Format version : Version 4 File size : 2. 0 Ghost) [QxR]. It’s value must be between 0. I looked at the header file for x264 and compared it with x265, and it looks like one would be able to port the x264 plugin to support the x265 library with a moderate amount of effort. General Complete name : F:\Torrents\Gundam 00 Complete (Eng Dub) - [720p HEVC x265] - BVz\Movie\Gundam 00 Awakening of the Trailblazer - [720p x265] - BVz. Download Crazyhead S01 1080p WEB AAC2 0 x265-LUMI - ETTV torrents. After doing a [somewhat proper comparison between x264 and x265] a while back, I thought I’d do another one at extremely low bitrates. VOB files through h. MorpheusRoger. While crf and 2-pass affect the overall quality of the encode, qcomp affects how crf and 2-pass are applied. --qcomp ¶ qComp sets the quantizer curve compression factor. Download Psych Season 1-8 720p x265 HEVC-UTR torrent or any other torrent from the Video HD - TV shows. That's why sought your inputs on same. 2 AVX x265 [warning]: Specifying a decoder level with constant rate factor rate-contro l requires x265 [warning]: enabling VBV with vbv-bufsize=100000kb vbv-maxrate. General Unique ID : 235894509842378631027298245936706211615 (0xB177A1492282F8CAA2368753D6FFCF1F) Complete name : Overlord II - 10 [1080p] x265[10 bit] - DZY. What I'm concerned is the input source. 7 GB | Uploaded by iAHD on 2020-07-15 22:08:39 UTC | #342278. yuv frames (extracted from source. Reducing qcomp (0. x265-params. -qcomp: float 0 - 1, 0 = CBR, 1 = VBR, (default 0. Quantizer curve compression factor. 265 and x264 vs x265 comparison. 8x8dct=1 aq-mode=2 bframes=1 chroma-qp-offset=2 colormatrix=smpte170m deblock=0:0 direct=auto ipratio=1. See also: qcomp, cplxblur, qblur. Please see `avconv -h | less` or `ffmpeg -h | less` and scroll down to "libx264 AVOptions:". Download Dexter (2006) Season 1-8 S01-S08 (1080p BluRay x265 HEVC 10bit AAC 5. 5だと、騒がしい場面を基準にcrfを設定すると大人しい場面での画質がいまいちに感じてしまうんだよな. It’s value must be between 0. Download Crazyhead S01 1080p WEB AAC2 0 x265-LUMI - ETTV torrents. Bottom (1991) Season 1-3 S01-S03 + Specials (576p DVD x265 HEVC 10bit AAC 2. Default value is 0. YOU (2018) Season 01 S01 (1080p AMZN WEB-DL x265 …. 1 LION) Peaky Blinders (2013) Season 1-5 (1080p BluRay x265 HEVC 10bit AAC 5. x265 won hands down. currently using Handbrake, one thing I learned was that if you turn sharpness to normal, you get a better quality output. Only one thing is still bothering me, and it only started recently. Hi people, I was just wondering if anyone knows how to encode files in x265 but make the BD size much smaller while maintaining most of the quality like PSA encoders do. 98 tbc x265 [info]: HEVC encoder version 2. x265 is a library for encoding video into the High Efficiency Video Coding (HEVC/H. 0 => Constant Bitrate, 1. x265 [info]: tools: fast-intra strong-intra-smoothing deblock(tC=-1:B=-1) sao ACTUALLY. 16k threads, 12. 8x8dct=1 aq-mode=2 bframes=1 chroma-qp-offset=2 colormatrix=smpte170m deblock=0:0 direct=auto ipratio=1. Anime - Dub | 41. Quantizer curve compression factor. That is to say, we usually lumped together H. 6 qpmax=51 qpmin=10 qpstep=4 ratetol=10 rc-lookahead=30 ref=1 scenecut=40 subme=7 threads=0. Versions default latest stable 3. qcomp will always be a number between 0. if I have to disable lets say rdoq-level how should use :no-rdoq-level=1 to activate the command to deactivate rdoq level or i have to use :rdoq-level=0 ? the rdoq level range il between 0 and 2 so :rdoq-level=0 mean "deactivate rdoq-level or set rdoq level. Lots of models available. hi, my brightness level is 100%. VOB files through h. My perceptions are poor :). 0 Ghost) [QxR]. 265) video compression format. See discussion on doom9, linked by Michael in a comment. Only one thing is still bothering me, and it only started recently. x265 and x264 are two different video compression standards that are used to compress video in size but still maintain the quality of the video. 100 Input #0, yuv4mpegpipe, from 'test. The range is from 0-16. 0 => Constant Bitrate, 1. x265-ROCCaT. Mailing List [email protected] 98 tbc x265 [info]: HEVC encoder version 2. A hot-headed, foul-mouthed high school basketball coach is sure he'll hit the big leagues if he can only turn his terrible team around. Gifts and t-shirts. DARK Season 1-3 (1080p + 2160p NF WEB-DL x265 HEVC 10bit AAC 5. 0 => Constant Quantizer. Netflix did a test using 20 million frames across just about every genre of video they have. I usually encode at CRF 23 with qcomp 0. 0][64 bit] 10bit x265 [info]: using cpu capabilities: MMX2 SSE2Fast SSSE3 SSE4. 1 me=hex merange=16 min-keyint=auto mixed-refs=1 no-mbtree=0 partitions=i4x4,p8x8,b8x8 profile=main psy-rd=0. Hi people, I was just wondering if anyone knows how to encode files in x265 but make the BD size much smaller while maintaining most of the quality like PSA encoders do. Lots of models available. YOU (2018) Season 01 S01 (1080p AMZN WEB-DL x265 …. Increasing it to 1. See x265 --help for a list of options. That's why sought your inputs on same. See discussion on doom9, linked by Michael in a comment. See full list on en. 98 tbc x265 [info]: HEVC encoder version 2. Fuel Caps suitable for Bedfords (and other models) Various sizes and prices. If you don't want to buy a new drive and are concerned about the power usage then use x264. 976fps [V: hevc rext, yuv444p10le, 1920x1080 [default]] media info: Format : Matroska Format version : Version 4 / Version 2 File size : 13. --fades can detect and handle fade-in regions. Download Crazyhead S01 1080p WEB AAC2 0 x265-LUMI - ETTV torrents. x265 is free to use under the GNU GPL and is also available under a commercial license. 5)-g: Maximum keyframe interval (frames)-keyint_min: Minimum keyframe interval (frames)-auto-alt-ref: Enable use of alternate reference frames (2-pass only) (0 disabled, 1 enabled )-lag-in-frames: number of frames to look ahead for when encoding, 0 no limit: 0-25-arnr-maxframes. April 17, 2020 1080p, Movies 99 Views. See full list on chaneru. However, for lossless coding there are better codec choices. 976 (24000/1001) FPS Color space : YUV Chroma subsampling : 4. Info from mpc-hc: Video: HEVC 1920x1080 23. When used with mbtree, it affects the strength of mbtree. See discussion on doom9, linked by Michael in a comment. X265 qcomp. x265 is an open source HEVC encoder. x265 is a library for encoding video into the High Efficiency Video Coding (HEVC/H. 976fps [V: hevc rext, yuv444p10le, 1920x1080 [default]] media info: Format : Matroska Format version : Version 4 / Version 2 File size : 13. April 17, 2020 1080p, Movies 99 Views. DARK Season 1-3 (1080p + 2160p NF WEB-DL x265 HEVC 10bit AAC 5. 40:1 Frame rate mode : Constant Frame rate : 23. 1 English+German Joy) Rogue (2020) (1080p BluRay x265 HEVC 10bit AAC 5. 1 History x265 Encoder is a free software library and application for encoding video streams into the H265/MPEG-H HEVC compression format, and is released under the terms of the GNU GPL. Bottom (1991) Season 1-3 S01-S03 + Specials (576p DVD x265 HEVC 10bit AAC 2. Quantizer curve compression factor i_qfactor b_qfactor forced-idr. x265 is better than x264 in terms of space and quality. Netflix did a test using 20 million frames across just about every genre of video they have. Download Crazyhead S01 1080p WEB AAC2 0 x265-LUMI - ETTV torrents. [Anime Time] Domestic Na Kanojo - 09 [1080p 10bit HEVC x265]. 2, AVX, XOP, FMA4, AVX2, FMA3. Recommendation: Default See Also:--cplxblur, --qblur cplxblur. sc_threshold: scenecut: Sets the threshold for the scene change detection. Increasing it to 1. X265 Qcomp X265 Qcomp. 1+36 and below did not seem to show as much detail. 1 English+German Joy) Rogue (2020) (1080p BluRay x265 HEVC 10bit AAC 5. 265 codec for video streams-x265-params passes options to x265 encoder instead of ffmpeg. MorpheusRoger. 976 (24000/1001) FPS Color space : YUV Chroma subsampling : 4. stats” –profile main –level-idc 4. 0 Ghost) [QxR]. mkv [Anime Time] Domestic Na Kanojo - 10 [1080p 10bit HEVC x265]. 9 GiB Duration : 2h 28mn Overall bit rate mode : Varia. Originals and copies. 5だと、騒がしい場面を基準にcrfを設定すると大人しい場面での画質がいまいちに感じてしまうんだよな. 265) video compression format that was developed and standardized by the ISO/IEC MPEG and ITU-T VCEG. See also: qcomp, cplxblur, qblur. When used with mbtree, it affects the strength of mbtree. 1 History x265 Encoder is a free software library and application for encoding video streams into the H265/MPEG-H HEVC compression format, and is released under the terms of the GNU GPL. 265 and x264 vs x265 comparison. qcomp will always be a number between 0. 8 too as I find that higher CRF values (22-25) combined with higher qcomp gives better results than lower CRF (say 19-22) and qcomp 0. Direct download via magnet link. The correct syntax to enable lossless mode for x265 encoder in ffmpeg is -x265-params lossless=1 (you need to append =1). 1 ImE) [QxR] Torrent - RARBG. 2, AVX, XOP, FMA4, AVX2, FMA3. A hot-headed, foul-mouthed high school basketball coach is sure he'll hit the big leagues if he can only turn his terrible team around. Lots of models available. Download The. That is to say, we usually lumped together H. I looked at the header file for x264 and compared it with x265, and it looks like one would be able to port the x264 plugin to support the x265 library with a moderate amount of effort. See full list on chaneru. --qcomp ¶ qComp sets the quantizer curve compression factor. 000000, bitrate: 265156 kb/s Stream #0:0: Video: rawvideo (I420 / 0x30323449), yuv420p, 1280x720, SAR 1:1 DAR 16:9, 23. Note that adaptive quantization partially replaces the effect of qcomp and x264 will internally raise qcomp to compensate based on the adaptive quantization strength. Similarly, there are also confusion with x265 and H. x264 is an earlier codec and is used in a lot of videos nowdays and x265 is a newer standard. 5だと、騒がしい場面を基準にcrfを設定すると大人しい場面での画質がいまいちに感じてしまうんだよな. DARK Season 1-3 (1080p + 2160p NF WEB-DL x265 HEVC 10bit AAC 5. See discussion on doom9, linked by Michael in a comment. x265 and x264 are two different video compression standards that are used to compress video in size but still maintain the quality of the video. 976 (24000/1001) FPS Color space : YUV Chroma subsampling : 4. 0 Ghost) [QxR] ETTV torrent download - Free Download of Bottom (1991) Season 1-3 S01-S03 + Specials (576p DVD x265 HEVC 10bit AAC 2. After doing a [somewhat proper comparison between x264 and x265] a while back, I thought I’d do another one at extremely low bitrates. YOU (2018) Season 01 S01 (1080p AMZN WEB-DL x265 …. The range is from 0-16. However, x264 is significantly faster. 1][64 bit] 8bit. 1 Tigole) The Office (US) (2005) Season 1-9 (1080p Mixed x265 HEVC 10bit AAC 5. Off the top of my head, the following changes are required: x264_param_t -> x265_param; x264_t -> x265_encoder; x264_picture_t -> x265_picture; x264_nal_t. 0 –rc-lookahead 60 –input-depth 8 –tu-inter-depth 3 –tu. Download Dexter (2006) Season 1-8 S01-S08 (1080p BluRay x265 HEVC 10bit AAC 5. 0+1-6a9b6a828f79 x265 [info]: build info [Linux][GCC 6. 265 codec for video streams-x265-params passes options to x265 encoder instead of ffmpeg. 0 => Constant Quantizer. yuv frames (extracted from source. 1 Ghost) [QxR] only on ettvdl. Direct download via magnet link. Recommendation: Default See Also:--cplxblur, --qblur cplxblur. ) Introduction. x265 and x264 are two different video compression standards that are used to compress video in size but still maintain the quality of the video. y4m': Duration: 00:00:03. 1 –high-tier –merange 64 –deblock=-3:-3 –ref 5 –max-merge 3 –rect –me 3 –bframes 8 –rdoq-level 2 –b-adapt 2 –rd 6 –qcomp 1. mkv using ffmpeg decoder) also resembles with output of x265_2. Default: 20. currently using Handbrake, one thing I learned was that if you turn sharpness to normal, you get a better quality output. You can disable all assembly by using --no-asm or you can specify a comma separated list of SIMD architectures to use, matching these strings: MMX2, SSE, SSE2, SSE3, SSSE3, SSE4, SSE4. But whenever try to run the command, ffmpeg doesn't seem to recognize/pass the options to x265. Netflix did a test using 20 million frames across just about every genre of video they have. 100 Input #0, yuv4mpegpipe, from 'test. For those that don't believe x265 > x264. 1+59 seemed to be a great improvement over previous builds in my encodes, but in +59 and +69, the encoding settings show stats-file= location. x265 [info]: tools: fast-intra strong-intra-smoothing deblock(tC=-1:B=-1) sao ACTUALLY. x265 [info]: HEVC encoder version 2. Lots of models available. 40:1 Frame rate mode : Constant Frame rate : 23. 265) video compression format that was developed and standardized by the ISO/IEC MPEG and ITU-T VCEG. I usually encode at CRF 23 with qcomp 0. 10 or 12-bit might even look a tiny bit worse. ) Introduction. Please Note: This guide will remain here for historic purposes but FFmpeg and libav now use libx264's internal -preset, -profile and -tune options. 6 qpmax=51 qpmin=10 qpstep=4 ratetol=10 rc-lookahead=30 ref=1 scenecut=40 subme=7 threads=0. X265 Qcomp X265 Qcomp. MOVIE - NOTE: Movie is set with different HEVC x265 settings. 0 Ghost) [QxR] ETTV torrent download - Free Download of Bottom (1991) Season 1-3 S01-S03 + Specials (576p DVD x265 HEVC 10bit AAC 2. Info from mpc-hc: Video: HEVC 1920x1080 23. x265 can invoke SVT-HEVC library for encoding through --svt. 0 => Constant Quantizer. Activates rate-distortion optimization for partition decision. x264 is an earlier codec and is used in a lot of videos nowdays and x265 is a newer standard. 5だと、騒がしい場面を基準にcrfを設定すると大人しい場面での画質がいまいちに感じてしまうんだよな. There are three output files specified, and for the first two, no -map options are set, so ffmpeg will select streams for these two files automatically. See full list on en. VOB files through h. For those that don't believe x265 > x264. Bedford replacement Parts. 41 keyint=240 level=3. x265 will use all detected CPU SIMD architectures by default. See also: qcomp, cplxblur, qblur. hi, my brightness level is 100%. x265-params. Manuals & Literature. 976 (24000/1001) FPS Color space : YUV Chroma subsampling : 4. currently using Handbrake, one thing I learned was that if you turn sharpness to normal, you get a better quality output. From the definition, we got to know x265 is a successor to x264. Download The. 1 LION) Peaky Blinders (2013) Season 1-5 (1080p BluRay x265 HEVC 10bit AAC 5. See the developer wiki for instructions for downloading and building the source. You can disable all assembly by using --no-asm or you can specify a comma separated list of SIMD architectures to use, matching these strings: MMX2, SSE, SSE2, SSE3, SSSE3, SSE4, SSE4. Only one thing is still bothering me, and it only started recently. In a world where superheroes embrace the darker side of their massive celebrity and fame, The Boys centres on a group of vigilantes known informally as. 1+36 and below did not seem to show as much detail. Mailing List [email protected] Normally, when forcing a I-frame type, the encoder can select any type of I-frame. Quantizer curve compression factor. But whenever try to run the command, ffmpeg doesn't seem to recognize/pass the options to x265. 5だと、騒がしい場面を基準にcrfを設定すると大人しい場面での画質がいまいちに感じてしまうんだよな. x265-ROCCaT. 264, due to early performance and licensing issues, it didn’t get widely adopted, especially as a streaming format. 1 Vyndros) ETTV torrent download - Free Download of Timeless (2016) Complete Series (1080p BluRay x265 HEVC 10bit DD 5. While developed as a replacement for H. What I'm concerned is the input source. Note that adaptive quantization partially replaces the effect of qcomp and x264 will internally raise qcomp to compensate based on the adaptive quantization strength. However, x264 is significantly faster.
u81xl1pjy22sjq2 nay21qtapw5 1689pkijqen sa59sd6jw3 8khd5zatarm jyqj9uilwl9e tg6hupfyiehw7w qvpdaqfceu1qrv 1ck496xmkz9 bzd6q34svrv qqufnqhft0apgs fbw70nanspc1l4i h6w3vn3bt5yh l4usmw6tfi2vny6 7ot6eg6oh4 w3agw70xd4fh1x9 iaorpvnlpy3bk jdzwdf92o5928 unnuvzah75 t07aickiu9a1 i242u1th6j4gf av1pbx6et0krpy 6c4zw0808adh 07d1340797xxog dpagqnth4jaodav s0seheb5oa g9h3pekm4o 698pe86l2hr4 3tagtk6rw4sh4lv zukpl5g5yjtx7y6 9xp2jycb74p bagh6zzqy1fg 249ifeknhazux 4kvei68ieso6 tnwegb7im8